Home > Movie > Barood (1998) 720p Untouched Web-Dl AVC AAC [XMR]

Barood (1998) 720p Untouched Web-Dl AVC AAC [XMR]


13-01-2018, 06:48. Author: Maan770


Barood (1998) 720p Untouched Web-Dl AVC AAC [XMR]

Barood (1998) 720p Untouched Web-Dl AVC AAC [XMR]









Format                      : MPEG-4
Format profile              : Base Media
Codec ID                    : isom (isom/iso2/avc1/mp41)
File size                   : 1.61 GiB
Duration                    : 2 h 29 min
Overall bit rate            : 1 547 kb/s
Writing application         : Lavf57.56.100

Video
ID                          : 2
Format                      : AVC
Format/Info                 : Advanced Video Codec
Format profile              : [email protected]
Format settings, CABAC      : Yes
Format settings, RefFrames  : 4 frames
Codec ID                    : avc1
Codec ID/Info               : Advanced Video Coding
Duration                    : 2 h 29 min
Bit rate                    : 1 412 kb/s
Nominal bit rate            : 1 500 kb/s
Width                       : 1 280 pixels
Height                      : 720 pixels
Display aspect ratio        : 16:9
Frame rate mode             : Constant
Frame rate                  : 25.000 FPS
Color space                 : YUV
Chroma subsampling          : 4:2:0
Bit depth                   : 8 bits
Scan type                   : Progressive
Bits/(Pixel*Frame)          : 0.061
Stream size                 : 1.47 GiB (91%)
Writing library             : x264 core 148 r2721 72d53ab

Audio
ID                          : 1
Format                      : AAC
Format/Info                 : Advanced Audio Codec
Format profile              : LC
Codec ID                    : 40
Duration                    : 2 h 29 min
Bit rate mode               : Constant
Bit rate                    : 128 kb/s
Channel(s)                  : 2 channels
Channel positions           : Front: L R
Sampling rate               : 44.1 kHz
Frame rate                  : 43.066 FPS (1024 SPF)
Compression mode            : Lossy
Stream size                 : 137 MiB (8%)
Default                     : Yes
Alternate group             : 1



Barood (1998) 720p Untouched Web-Dl AVC AAC [XMR] Barood (1998) 720p Untouched Web-Dl AVC AAC [XMR] Barood (1998) 720p Untouched Web-Dl AVC AAC [XMR] Barood (1998) 720p Untouched Web-Dl AVC AAC [XMR] Barood (1998) 720p Untouched Web-Dl AVC AAC [XMR] Barood (1998) 720p Untouched Web-Dl AVC AAC [XMR] Barood (1998) 720p Untouched Web-Dl AVC AAC [XMR] Barood (1998) 720p Untouched Web-Dl AVC AAC [XMR] Barood (1998) 720p Untouched Web-Dl AVC AAC [XMR] Barood (1998) 720p Untouched Web-Dl AVC AAC [XMR] Barood (1998) 720p Untouched Web-Dl AVC AAC [XMR] Barood (1998) 720p Untouched Web-Dl AVC AAC [XMR]Barood (1998) 720p Untouched Web-Dl AVC AAC [XMR] Barood (1998) 720p Untouched Web-Dl AVC AAC [XMR] Barood (1998) 720p Untouched Web-Dl AVC AAC [XMR] Barood (1998) 720p Untouched Web-Dl AVC AAC [XMR]



Barood (1998) 720p Untouched Web-Dl AVC AAC [XMR]

http://rapidpaid.com/8204d022029fea35/Barood_(1998)_720p_Untouched_Web-Dl_AVC_AAC_[XMR].mp4


Barood (1998) 720p Untouched Web-Dl AVC AAC [XMR]

Back