Bhram An Illusion 2008 15Mbps 1080p Untouched WebHD x264 AAC [TMB]


Bhram An Illusion 2008 15Mbps 1080p Untouched WebHD x264 AAC [TMB]





Bhram An Illusion 2008 15Mbps 1080p Untouched WebHD x264 AAC [TMB]

Bhram An Illusion 2008 15Mbps 1080p Untouched WebHD x264 AAC [TMB]

Bhram An Illusion 2008 15Mbps 1080p Untouched WebHD x264 AAC [TMB]

Bhram An Illusion 2008 15Mbps 1080p Untouched WebHD x264 AAC [TMB]

Bhram An Illusion 2008 15Mbps 1080p Untouched WebHD x264 AAC [TMB]

Bhram An Illusion 2008 15Mbps 1080p Untouched WebHD x264 AAC [TMB]

Bhram An Illusion 2008 15Mbps 1080p Untouched WebHD x264 AAC [TMB]

Bhram An Illusion 2008 15Mbps 1080p Untouched WebHD x264 AAC [TMB]

Bhram An Illusion 2008 15Mbps 1080p Untouched WebHD x264 AAC [TMB]

Bhram An Illusion 2008 15Mbps 1080p Untouched WebHD x264 AAC [TMB]

Bhram An Illusion 2008 15Mbps 1080p Untouched WebHD x264 AAC [TMB]

Bhram An Illusion 2008 15Mbps 1080p Untouched WebHD x264 AAC [TMB]

Bhram An Illusion 2008 15Mbps 1080p Untouched WebHD x264 AAC [TMB]

Bhram An Illusion 2008 15Mbps 1080p Untouched WebHD x264 AAC [TMB]

Bhram An Illusion 2008 15Mbps 1080p Untouched WebHD x264 AAC [TMB]

General
Complete name : \Bhram An Illusion 2008 15Mbps 1080p Untouched WebHD x264 AAC [TMB].mp4
Format : MPEG-4
Format profile : Base Media
Codec ID : isom (isom/iso2/avc1/mp41)
File size : 12.2 GiB
Duration : 1 h 56 min
Overall bit rate : 15.0 Mb/s
Writing application : Lavf56.40.101

Video
Format : AVC
Format/Info : Advanced Video Codec
Format profile : [email protected]
Format settings : 2 Ref Frames
Format settings, CABAC : No
Format settings, RefFrames : 2 frames
Format settings, GOP : M=2, N=24
Codec ID : avc1
Codec ID/Info : Advanced Video Coding
Duration : 1 h 56 min
Bit rate : 14.7 Mb/s
Width : 1 920 pixels
Height : 1 080 pixels
Display aspect ratio : 16:9
Frame rate mode : Variable
Frame rate : 25.000 FPS
Minimum frame rate : 0.200 FPS
Maximum frame rate : 25.000 FPS
Color space : YUV
Chroma subsampling : 4:2:0
Bit depth : 8 bits
Scan type : Progressive
Bits/(Pixel*Frame) : 0.284
Stream size : 12.0 GiB (98%)

Audio
Format : AAC
Format/Info : Advanced Audio Codec
Format profile : LC
Codec ID : mp4a-40-2
Duration : 1 h 56 min
Bit rate mode : Constant
Bit rate : 237 kb/s
Channel(s) : 2 channels
Channel positions : Front: L R
Sampling rate : 44.1 kHz
Frame rate : 43.066 FPS (1024 SPF)
Compression mode : Lossy
Stream size : 198 MiB (2%)


Bhram An Illusion 2008 15Mbps 1080p Untouched WebHD x264 AAC [TMB]

http://rapidpaid.com/445b98b5b4a6f6b7/Bhram_An_Illusion_2008_15Mbps_1080p_Untouched_WebHD_x264_AAC_[TMB].mp4


Bhram An Illusion 2008 15Mbps 1080p Untouched WebHD x264 AAC [TMB]
20

Dear visitor, you went to the site as unregistered user.
We recommend you to register or enter the site under your name.
Information
Customers are in the group Guests, can not leave comments in the news.
Adding a comment
Name:*
E-Mail:
Code:
reload, if the code cannot be seen
Enter the code: