Yaraana 1995 720p Untouched Web-Dl AVC AAC [XMR]



Yaraana 1995 720p Untouched Web-Dl AVC AAC [XMR]




Format : MPEG-4
Format profile : Base Media
Codec ID : isom (isom/iso2/avc1/mp41)
File size : 1.79 GiB
Duration : 2 h 3 min
Overall bit rate mode : Variable
Overall bit rate : 2 066 kb/s
Writing application : Lavf56.40.101

Video
ID : 1
Format : AVC
Format/Info : Advanced Video Codec
Format profile : [email protected]
Format settings, CABAC : Yes
Format settings, RefFrames : 1 frame
Format settings, GOP : M=1, N=25
Codec ID : avc1
Codec ID/Info : Advanced Video Coding
Duration : 2 h 3 min
Bit rate mode : Constant
Bit rate : 2 000 kb/s
Width : 1 280 pixels
Height : 720 pixels
Display aspect ratio : 16:9
Frame rate mode : Constant
Frame rate : 25.000 FPS
Color space : YUV
Chroma subsampling : 4:2:0
Bit depth : 8 bits
Scan type : Progressive
Bits/(Pixel*Frame) : 0.087
Stream size : 1.73 GiB (97%)

Audio
ID : 2
Format : AAC
Format/Info : Advanced Audio Codec
Format profile : LC
Codec ID : 40
Duration : 2 h 3 min
Bit rate mode : Variable
Bit rate : 61.4 kb/s
Maximum bit rate : 67.5 kb/s
Channel(s) : 2 channels
Channel positions : Front: L R
Sampling rate : 48.0 kHz
Frame rate : 46.875 FPS (1024 SPF)
Compression mode : Lossy
Stream size : 54.4 MiB (3%)
Default : Yes
Alternate group : 1


Yaraana 1995 720p Untouched Web-Dl AVC AAC [XMR] Yaraana 1995 720p Untouched Web-Dl AVC AAC [XMR] Yaraana 1995 720p Untouched Web-Dl AVC AAC [XMR] Yaraana 1995 720p Untouched Web-Dl AVC AAC [XMR] Yaraana 1995 720p Untouched Web-Dl AVC AAC [XMR] Yaraana 1995 720p Untouched Web-Dl AVC AAC [XMR] Yaraana 1995 720p Untouched Web-Dl AVC AAC [XMR] Yaraana 1995 720p Untouched Web-Dl AVC AAC [XMR] Yaraana 1995 720p Untouched Web-Dl AVC AAC [XMR] Yaraana 1995 720p Untouched Web-Dl AVC AAC [XMR] Yaraana 1995 720p Untouched Web-Dl AVC AAC [XMR] Yaraana 1995 720p Untouched Web-Dl AVC AAC [XMR] Yaraana 1995 720p Untouched Web-Dl AVC AAC [XMR] Yaraana 1995 720p Untouched Web-Dl AVC AAC [XMR] Yaraana 1995 720p Untouched Web-Dl AVC AAC [XMR] Yaraana 1995 720p Untouched Web-Dl AVC AAC [XMR] Yaraana 1995 720p Untouched Web-Dl AVC AAC [XMR] Yaraana 1995 720p Untouched Web-Dl AVC AAC [XMR]

Yaraana 1995 720p Untouched Web-Dl AVC AAC [XMR]
Buy Premium Account From My Download Links And Get Resumable Support & SUPER Fastest Speed
http://rapidpaid.com/3767af7eaac794d5/Yaraana_1995_720p_Untouched_Web-Dl_AVC_AAC_[XMR].mp4


Yaraana 1995 720p Untouched Web-Dl AVC AAC [XMR]
80

Dear visitor, you went to the site as unregistered user.
We recommend you to register or enter the site under your name.
Information
Customers are in the group Guests, can not leave comments in the news.
Adding a comment
Name:*
E-Mail:
Code:
reload, if the code cannot be seen
Enter the code: